Iron Man 2 (2010) DVDRip XviD-MAX free Download


Iron Man 2 (2010) DVDRip XviD-MAX

Iron Man 2 (2010) DVDRip XviD-MAX

Format : AVI
Format/Info : Audio Video Interleave
Format profile : OpenDML
File size : 1.35 GiB
Duration : 1h 59mn
Overall bit rate : 1 611 Kbps
Writing application : VirtualDubMod 1.5.10.2 (build 2542/release)
Writing library : VirtualDubMod build 2542/release
Copyright : SIGISMUNT

Video
ID : 0
Format : MPEG-4 Visual
Format profile : AdvancedSimple@L5
Format settings, BVOP : Yes
Format settings, QPel : No
Format settings, GMC : No warppoints
Format settings, Matrix : Default (H.263)
Codec ID : XVID
Codec ID/Hint : XviD
Duration : 1h 59mn
Bit rate : 1 157 Kbps
Width : 704 pixels
Height : 304 pixels
Display aspect ratio : 2.35:1
Frame rate : 25.000 fps
Resolution : 24 bits
Colorimetry : 4:2:0
Scan type : Progressive
Bits/(Pixel*Frame) : 0.216
Stream size : 991 MiB (72%)
Writing library : XviD 1.3.0.dev55

Audio
ID : 1
Format : AC-3
Format/Info : Audio Coding 3
Codec ID : 2000
Duration : 1h 59mn
Bit rate mode : Constant
Bit rate : 448 Kbps
Channel(s) : 6 channels
Channel positions : Front: L C R, Surround: L R, LFE
Sampling rate : 48.0 KHz
Stream size : 384 MiB (28%)
Alignment : Aligned on interleaves
Interleave, duration : 64 ms (1.60 video frames)
Interleave, preload duration : 192 ms

All Link Download:

“Just Copy Paste to your Browser”

http://www.fileserve.com/file/KtVUTBP/Iron Man 2 (2010) DVDRip XviD-MAXSPEED.avi.001
http://www.fileserve.com/file/WFAVjCE/Iron Man 2 (2010) DVDRip XviD-MAXSPEED.avi.002
http://www.fileserve.com/file/66QBHhY/Iron Man 2 (2010) DVDRip XviD-MAXSPEED.avi.003
http://www.fileserve.com/file/gmwa4mf/Iron Man 2 (2010) DVDRip XviD-MAXSPEED.avi.004
http://www.fileserve.com/file/gJbWXaS/Iron Man 2 (2010) DVDRip XviD-MAXSPEED.avi.005
http://www.fileserve.com/file/BThgFmy/Iron Man 2 (2010) DVDRip XviD-MAXSPEED.avi.006
http://www.fileserve.com/file/pZP7qPY/Iron Man 2 (2010) DVDRip XviD-MAXSPEED.avi.007
No pass.

  • Halaman

  • September 2010
    M T W T F S S
    « Aug   Oct »
     12345
    6789101112
    13141516171819
    20212223242526
    27282930  
  • RSS 20 Newest Free

  • RSS Brothersoft

  • RSS New Software

  • AntiVirus

  • Status Anda

    IP
  • Pengunjung

    free counters
  • Blog Stats

    • 328,438 hits
  • Add to Google Reader or Homepage Subscribe in NewsGator Online Add to netvibes Subscribe in Bloglines Add to fwicki Add to Webwag Powered by FeedBurner

  • Friends Link

  • RSS Kompas

    • An error has occurred; the feed is probably down. Try again later.
  • RSS Lowongan Kerja Terbaru 2013

    • An error has occurred; the feed is probably down. Try again later.
  • RSS Loker.id

  • Info Tentang AQ

  • Meta